<?xml version="1.0" standalone="no"?>
<!DOCTYPE svg PUBLIC "-//W3C//DTD SVG 1.1//EN" "http://www.w3.org/Graphics/SVG/1.1/DTD/svg11.dtd" >
<svg xmlns="http://www.w3.org/2000/svg">
<metadata>Generated by IcoMoon</metadata>
<defs>
<font id="hummingbird" horiz-adv-x="1024">
<font-face units-per-em="1024" ascent="960" descent="-64" />
<missing-glyph horiz-adv-x="1024" />
<glyph unicode="&#x20;" horiz-adv-x="512" d="" />
<glyph unicode="&#x4f;" glyph-name="fi-plugin-2" horiz-adv-x="645" d="M568.491 655.701l2.731 274.603c0.001 0.101 0.002 0.221 0.002 0.341 0 16.212-13.143 29.355-29.355 29.355-0.001 0-0.001 0-0.002 0h-87.040c-16.055-0.093-29.068-12.987-29.354-28.986l-2.731-275.312h-200.021l2.731 274.432c0.003 0.152 0.004 0.332 0.004 0.512 0 16.154-13.048 29.26-29.179 29.354h-87.049c-0.001 0-0.003 0-0.004 0-16.126 0-29.233-12.929-29.521-28.986l-2.731-275.312h-76.971v-168.96c0.699-144.669 96.73-266.722 228.462-306.607l5.010-214.268c0.049-8.233 3.581-15.631 9.196-20.803 5.313-5.089 12.508-8.21 20.432-8.21 0.024 0 0.048 0 0.072 0h-0.004c29.355 0 45.568 0.853 61.781 1.536s31.573 1.365 59.904 1.536c0.001 0 0.001 0 0.002 0 16.281 0 29.501 13.101 29.694 29.336v209.597c133.939 40.538 229.895 162.573 230.57 307.121v169.039z" />
<glyph unicode="&#x51;" glyph-name="fi-trash" horiz-adv-x="845" d="M788.651 828.416c0.052 0 0.113 0.001 0.175 0.001 16.598 0 30.087-13.311 30.374-29.84v-88.091c-0.19-16.512-13.525-29.847-30.019-30.037h-732.69c-0.125-0.002-0.272-0.003-0.42-0.003-8.153 0-15.512 3.403-20.733 8.867l-0.010 0.011c-5.475 5.258-8.877 12.639-8.877 20.815 0 0.122 0.001 0.244 0.002 0.366v-0.019 88.064c-0.001 0.103-0.002 0.225-0.002 0.348 0 8.176 3.402 15.557 8.867 20.806l0.010 0.009c5.258 5.475 12.639 8.877 20.815 8.877 0.122 0 0.244-0.001 0.366-0.002h247.448v37.376c0.19 16.512 13.525 29.847 30.019 30.037h177.17c16.512-0.19 29.847-13.525 30.037-30.019v-37.565zM748.373 626.005c16.512-0.19 29.847-13.525 30.037-30.019v-629.949c0.003-0.149 0.004-0.325 0.004-0.501 0-8.034-3.191-15.324-8.374-20.67l0.007 0.008c-5.204-5.479-12.543-8.887-20.678-8.887-0.29 0-0.58 0.004-0.868 0.013l0.042-0.001h-651.776c-0.267-0.009-0.582-0.014-0.897-0.014-8.113 0-15.43 3.41-20.594 8.875l-0.013 0.013c-5.276 5.332-8.536 12.668-8.536 20.765 0 0.14 0.001 0.279 0.003 0.419v-0.021 629.931c-0.002 0.118-0.003 0.258-0.003 0.397 0 8.097 3.26 15.434 8.539 20.768l-0.003-0.003c5.177 5.479 12.494 8.889 20.607 8.889 0.315 0 0.63-0.005 0.943-0.015l-0.046 0.001z" />
<glyph unicode="&#x5a;" glyph-name="fi-wand-magic" horiz-adv-x="868" d="M658.432 470.187l106.325 106.325c4.546 4.541 7.358 10.817 7.358 17.749s-2.812 13.208-7.357 17.749l-88.576 88.747c-4.541 4.546-10.817 7.358-17.749 7.358s-13.208-2.812-17.749-7.357l-106.496-106.326zM480.939 541.184l-469.845-470.016c-6.839-6.802-11.072-16.219-11.072-26.624s4.233-19.822 11.070-26.622l70.828-70.828c6.821-6.798 16.232-11.001 26.624-11.001s19.803 4.203 26.625 11.002l470.015 469.844zM250.709 815.616l14.848-40.277c14.495-38.364 44.239-68.107 81.64-82.283l41.24-15.168-40.277-14.848c-38.364-14.495-68.107-44.239-82.283-81.64l-15.168-41.24-14.848 40.277c-14.423 38.302-44.036 68.028-81.302 82.28l-41.237 15.17 40.277 14.848c38.364 14.495 68.107 44.239 82.283 81.64zM551.765 960l10.24-27.477c9.877-26.259 30.232-46.613 55.834-56.273l28.134-10.457-27.477-10.24c-26.246-9.897-46.593-30.245-56.272-55.833l-10.458-27.452-10.24 27.477c-9.897 26.246-30.245 46.593-55.833 56.272l-28.135 10.458 27.477 10.24c26.259 9.877 46.613 30.232 56.273 55.834zM796.331 311.467l7.851-20.992c7.584-20.049 23.129-35.594 42.675-43.011l21.666-8.018-21.163-7.851c-20.049-7.584-35.594-23.129-43.011-42.675l-8.018-21.495-7.851 20.992c-7.584 20.049-23.129 35.594-42.675 43.011l-21.666 8.018 21.163 7.851c20.049 7.584 35.594 23.129 43.011 42.675z" />
<glyph unicode="&#x7a;" glyph-name="fi-filter" d="M1024 728.576c-0.063 44.774-35.52 81.246-79.888 82.939l-860.997 0.005c-0.072 0-0.157 0-0.243 0-45.903 0-83.115-37.212-83.115-83.115 0-26.158 12.084-49.494 30.974-64.73l386.036-386.343v-238.933c0.665-15.332 9.197-28.533 21.637-35.729l0.209-0.111 103.424-59.733c6.303-3.758 13.9-5.98 22.016-5.98 24.035 0 43.52 19.485 43.52 43.52 0 0.062 0 0.124 0 0.187 0 1.185 0 2.209 0 3.404v0 293.376l389.803 389.632c16.397 15.17 26.628 36.8 26.628 60.82 0 0.278-0.001 0.555-0.004 0.833zM284.843 645.291v0z" />
<glyph unicode="&#x7b;" glyph-name="fi-settings-slider-control" horiz-adv-x="978" d="M803.84 448c-0.001-67.298-54.557-121.854-121.856-121.854s-121.856 54.557-121.856 121.856c0 67.299 54.557 121.856 121.856 121.856 0.24 0 0.48-0.001 0.72-0.002 66.968-0.387 121.136-54.795 121.136-121.854 0-0.001 0-0.001 0-0.002zM494.933 355.328h-462.507c0 0 0 0 0 0-17.909 0-32.427 14.518-32.427 32.427 0 0.060 0 0.12 0 0.18v97.271c0 17.909 14.518 32.427 32.427 32.427h462.507zM868.693 355.328h77.141c17.87 0.096 32.33 14.557 32.427 32.417v97.289c0 17.909-14.518 32.427-32.427 32.427h-77.141zM803.84 838.144c-0.001-67.298-54.557-121.854-121.856-121.854s-121.856 54.557-121.856 121.856c0 67.299 54.557 121.856 121.856 121.856 0.24 0 0.48-0.001 0.72-0.002 66.968-0.387 121.136-54.795 121.136-121.854 0-0.001 0-0.001 0-0.002zM494.933 745.472h-462.507c-17.909 0-32.427 14.518-32.427 32.427v96.768c0 17.909 14.518 32.427 32.427 32.427h462.507zM868.693 745.472h77.141c17.909 0 32.427 14.518 32.427 32.427v96.768c0 17.909-14.518 32.427-32.427 32.427h-77.141zM174.592 57.856c0-67.299 54.557-121.856 121.856-121.856s121.856 54.557 121.856 121.856c0 67.299-54.557 121.856-121.856 121.856s-121.856-54.557-121.856-121.856zM482.816-34.645h463.019c17.909 0 32.427 14.518 32.427 32.427v97.28c0 17.909-14.518 32.427-32.427 32.427h-463.019zM109.568-34.645h-77.141c-17.909 0-32.427 14.518-32.427 32.427v97.28c0.096 17.87 14.557 32.33 32.417 32.427h77.151z" />
<glyph unicode="&#xaf;" glyph-name="fi-arrow-right" horiz-adv-x="921" d="M912.213 468.992l-388.949 388.608c-5.491 5.46-13.061 8.836-21.419 8.836s-15.927-3.375-21.42-8.837l-62.463-62.121c-5.46-5.491-8.836-13.061-8.836-21.419s3.375-15.927 8.837-21.42l230.569-230.399h-621.909c0 0 0 0-0.001 0-14.644 0-26.527-11.823-26.623-26.444v-95.583c0-14.704 11.92-26.624 26.624-26.624h621.909l-230.4-230.4c-5.46-5.491-8.836-13.061-8.836-21.419s3.375-15.927 8.837-21.42l62.292-61.951c5.491-5.46 13.061-8.836 21.419-8.836s15.927 3.375 21.42 8.837l388.948 388.607c5.38 5.401 8.706 12.851 8.706 21.077s-3.326 15.677-8.707 21.078z" />
<glyph unicode="&#xe900;" glyph-name="icon-audit" d="M716.8 608.137c-26.123-19.54-48.301-43.688-65.351-71.25-21.784 47.187-43.918 104.997-66.403 173.474l-103.264-737.457c-2.893-20.479-20.425-36.009-41.639-36.862-0.614 0-1.227-0.043-1.841-0.043-20.425 0-38.308 13.823-42.778 33.406l-143.325 627.766-79.64-206.838c-6.443-16.639-22.792-27.689-41.069-27.689h-131.491v85.329h101.116l120.84 313.627c6.794 17.663 24.238 28.969 44.137 27.604 19.329-1.323 35.459-14.89 39.71-33.321l122.155-535.227 98.399 702.386c2.849 20.223 19.943 35.625 40.85 36.819 20.907 1.664 39.754-12.074 45.014-31.87 29.498-110.629 68.375-229.834 104.579-319.856zM844.8 550.4c98.829 0 179.2-80.371 179.2-179.2s-80.371-179.2-179.2-179.2c-98.829 0-179.2 80.371-179.2 179.2s80.371 179.2 179.2 179.2zM844.8 460.8c-49.504 0-89.6-40.096-89.6-89.6s40.096-89.6 89.6-89.6c49.504 0 89.6 40.096 89.6 89.6s-40.096 89.6-89.6 89.6z" />
<glyph unicode="&#xe901;" glyph-name="wpmudev-icon-cross" d="M512 520.408l-117.396 117.396c-19.995 19.995-52.413 19.995-72.408 0s-19.995-52.413 0-72.408l117.396-117.396-117.396-117.396c-19.995-19.995-19.995-52.413 0-72.408s52.413-19.995 72.408 0l117.396 117.396 117.396-117.396c19.995-19.995 52.413-19.995 72.408 0s19.995 52.413 0 72.408l-117.396 117.396 117.396 117.396c19.995 19.995 19.995 52.413 0 72.408s-52.413 19.995-72.408 0l-117.396-117.396zM512 960c282.77 0 512-229.23 512-512s-229.23-512-512-512c-282.77 0-512 229.23-512 512s229.23 512 512 512z" />
<glyph unicode="&#xe902;" glyph-name="wpmudev-icon-info" d="M512 960c-282.77 0-512-229.23-512-512s229.23-512 512-512c282.77 0 512 229.23 512 512s-229.23 512-512 512zM563.2 448.472v-205.744c0-27.638-22.923-50.728-51.2-50.728-28.474 0-51.2 22.712-51.2 50.728v205.744c0 27.638 22.923 50.728 51.2 50.728 28.474 0 51.2-22.712 51.2-50.728zM588.8 627.2c0-42.711-34.385-76.8-76.8-76.8-42.711 0-76.8 34.385-76.8 76.8 0 42.711 34.385 76.8 76.8 76.8 42.711 0 76.8-34.385 76.8-76.8z" />
<glyph unicode="&#xe903;" glyph-name="wpmudev-icon-tick" d="M512 960c282.77 0 512-229.23 512-512s-229.23-512-512-512c-282.77 0-512 229.23-512 512s229.23 512 512 512zM337.735 469.234c-21.661 18.176-53.956 15.351-72.132-6.311s-15.351-53.956 6.311-72.132l205.624-172.539 265.625 316.559c18.176 21.661 15.351 53.956-6.311 72.132s-53.956 15.351-72.132-6.311l-199.803-238.116-127.181 106.718z" />
<glyph unicode="&#xe904;" glyph-name="wpmudev-icon-warning" d="M512-64c-282.77 0-512 229.23-512 512s229.23 512 512 512c282.77 0 512-229.23 512-512s-229.23-512-512-512zM563.2 447.528v205.744c0 27.638-22.923 50.728-51.2 50.728-28.474 0-51.2-22.712-51.2-50.728v-205.744c0-27.638 22.923-50.728 51.2-50.728 28.474 0 51.2 22.712 51.2 50.728zM588.8 268.8c0 42.711-34.385 76.8-76.8 76.8-42.711 0-76.8-34.385-76.8-76.8 0-42.711 34.385-76.8 76.8-76.8 42.711 0 76.8 34.385 76.8 76.8z" />
<glyph unicode="&#xe905;" glyph-name="icon-cache" d="M0 240.042c3.708 17.161 6.603 34.551 11.299 51.448 8.704 31.285 23.111 60.169 39.636 88.029 18.856 31.78 37.57 63.647 56.32 95.497 1.66 2.807 3.178 5.703 5.191 9.34-17.002 11.105-33.933 21.575-50.176 33.015-8.333 5.862-16.596 12.588-22.828 20.515-11.758 14.972-9.993 32.15 4.467 44.562 7.415 6.356 16.402 11.511 25.494 15.237 55.737 22.775 111.668 45.056 167.6 67.355 5.844 2.313 11.952 4.202 18.114 5.473 31.903 6.585 58.138-11.758 62.87-43.838 0.865-5.915 1.448-11.935 1.483-17.902 0.265-57.98 0.618-115.96 0.265-173.94-0.053-9.763-1.977-20.021-5.455-29.114-6.638-17.373-22.493-25.229-40.448-20.498-8.845 2.33-17.249 6.762-25.459 11.017-6.479 3.337-12.341 7.857-18.485 11.847-6.144 3.972-12.288 7.945-19.138 12.376-1.624-2.119-3.337-3.972-4.608-6.109-18.273-30.579-36.564-61.14-54.678-91.825-10.558-17.885-18.803-36.67-21.839-57.468-6.532-44.774 13.347-80.102 56.161-94.88 17.020-5.862 35.663-9.11 53.671-9.604 47.598-1.306 95.267-0.441 143.73-0.441v-127.418c-2.278-0.212-4.82-0.636-7.362-0.636-47.651-0.018-95.32-0.689-142.953 0.265-52.559 1.024-103.388 10.54-149.097 38.418-46.521 28.354-74.575 69.279-81.99 123.728-0.265 1.907-1.183 3.708-1.783 5.561v39.989zM529.99 960c8.033-1.801 16.137-3.355 24.099-5.42 55.102-14.371 97.385-47.916 129.765-92.902 26.182-36.352 48.092-75.794 71.821-113.93 5.402-8.686 10.434-17.585 16.137-27.242 17.726 11.652 34.339 23.234 51.623 33.686 8.686 5.244 18.255 9.781 28.036 12.306 16.861 4.343 31.779-3.125 38.259-19.191 3.637-9.040 5.897-19.28 5.967-28.99 0.388-59.304 0.088-118.608-0.371-177.912-0.053-8.21-1.342-16.702-3.796-24.541-9.657-30.879-39.918-43.785-73.94-31.056-39.565 14.777-78.795 30.473-118.13 45.815-19.527 7.627-39.088 15.113-58.456 23.128-15.854 6.55-30.543 15.448-32.662 34.357-2.136 19.015 10.505 30.72 24.523 40.572 13.047 9.181 26.536 17.708 40.148 26.73-0.477 1.518-0.618 2.843-1.236 3.867-22.175 37.164-43.396 74.947-67.072 111.105-10.558 16.119-24.47 31.038-39.671 42.902-32.415 25.282-72.916 25.53-105.472 0.371-15.748-12.164-28.248-28.778-41.207-44.244-6.744-8.033-11.282-17.92-17.090-27.419-33.88 20.233-67.231 40.148-100.987 60.31 34.551 60.452 75.175 113.753 140.482 142.072 16.843 7.292 35.434 10.523 53.23 15.625h35.999zM735.889 160.060c30.985 0.6 60.928-2.366 90.359 5.703 56.655 15.519 82.573 60.981 63.77 116.737-7.345 21.804-20.039 41.843-30.79 62.429-5.349 10.275-11.794 19.986-18.361 30.985 32.944 19.739 65.412 39.159 97.597 58.439 1.095-0.477 1.995-0.565 2.26-1.006 30.226-50.123 62.764-99.134 76.27-157.362 12.341-53.248 10.099-104.661-20.692-151.888-26.818-41.137-66.683-64.089-112.498-78.019-31.126-9.446-63.152-13.33-95.585-13.912-16.949-0.3-33.898-0.053-52.224-0.053 0-16.808 0.494-33.015-0.194-49.17-0.388-8.863-1.554-18.061-4.52-26.342-5.932-16.402-20.974-23.958-37.817-19.191-8.492 2.401-16.878 6.303-24.329 11.088-53.477 34.445-106.76 69.191-159.99 104.007-39.3 25.706-39.106 61.387 0.441 87.235 49.893 32.627 99.875 65.113 149.839 97.634 5.579 3.637 11.087 7.398 16.896 10.664 32.132 18.132 58.262 3.566 59.462-33.457 0.583-17.638 0.106-35.293 0.106-54.52z" />
<glyph unicode="&#xe906;" glyph-name="icon-cloudflare" d="M157.569 399.14c-12.601 48.599 0.489 89.238 43.354 116.587 43.289 27.621 86.217 20.578 126.953-10.669 24.466 75.172 73.002 128.355 148.405 156.089 49.465 18.195 100.165 19.155 150.506 3.923 59.684-18.056 105.658-53.992 136.94-107.167 31.233-53.092 38.256-110.063 24.847-171.853 5.338 3.668 8.465 5.986 11.756 8.052 49.368 31.011 100.823 34.4 151.671 5.958 52.049-29.115 75.612-75.35 71.553-133.933-0.981-14.155-6.561-28.102-10.986-41.845-0.908-2.817-5.933-4.699-9.414-6.245-1.956-0.867-4.639-0.164-6.995-0.164-325.329 0-650.657 0.063-975.984-0.273-11.326-0.012-15.161 3.298-17.402 13.951-16.019 76.112 39.282 154.285 117.458 164.766 11.919 1.599 24.024 1.853 37.34 2.823zM981.825 589.732c-20.335-24.367-40.671-48.735-61.008-73.102 0.414-0.685 0.826-1.37 1.24-2.055 28.699 7.199 57.401 14.398 86.102 21.597 0.26-0.432 0.521-0.861 0.781-1.293-23.186-16.483-46.374-32.965-69.56-49.448 0.061-0.732 0.121-1.465 0.182-2.195 24.801-1.069 49.602-2.136 74.403-3.203 0.19-0.697 0.382-1.395 0.571-2.092-16.328-7.14-32.632-14.335-49.035-21.312-1.231-0.523-3.27 0.236-4.732 0.855-35.036 14.861-71.48 19.784-109.888 14.438-2.372 12.326-4.199 24.277-7.019 36.002-8.017 33.323-22.005 64.133-40.933 92.927-2.439 3.711-3.359 9.976-2.057 14.188 6.587 21.326 14.14 42.365 23.129 63.359 3.046-30.728 6.095-61.457 9.143-92.185 0.741-0.275 1.484-0.552 2.225-0.829 15.981 25.103 31.962 50.204 47.943 75.305 0.773-0.263 1.548-0.525 2.324-0.788-5.719-29.976-11.437-59.95-17.154-89.925 0.66-0.354 1.32-0.711 1.978-1.065 21.779 20.358 43.556 40.718 65.335 61.077 0.525-0.281 1.052-0.564 1.579-0.845l-33.835-76.892c0.408-0.629 0.816-1.259 1.223-1.888 25.286 13.531 50.571 27.064 75.857 40.598 0.402-0.41 0.806-0.819 1.207-1.229zM764.304 678.285c5.166-15.819 9.888-30.285 14.782-45.269-17.977 10.841-23.636 25.141-14.782 45.269z" />
<glyph unicode="&#xe907;" glyph-name="icon-gzip" horiz-adv-x="870" d="M466.537 404.299v80.826l227.404-80.831h-146.345c73.056-0.007 143.737-0.021 203.106-0.035 32.626 0 48.694-23.043 36.417-51.972-22.307-52.51-74.864-86.701-134.313-86.822-84.585-0.191-169.188-0.052-253.792-0.052-83.080 0-166.178-0.017-249.258 0-86.235 0.017-149.384 60.011-149.547 142.805-0.272 137.769-0.272 275.539-0.036 413.325 0.127 76.056 64.745 138.012 144.143 138.134 169.587 0.243 339.175 0.695 508.744-0.26 62.55-0.347 107.255-30.405 133.189-84.791 14.49-30.405-2.067-53.76-36.943-53.76-151.071-0.035-374.684 0.017-525.755 0.017-48.332 0-78.419-28.79-78.437-74.997-0.036-87.881-0.054-175.745-0.054-263.627 0.018-50.635 29.053-78.036 82.155-78.001 69.133 0.032 153.612 0.042 239.323 0.040zM471.063 213.049h217.629v-121.204c26.841 0 16.467-0.191 42.365 0.278 2.775 0.052 6.057 3.473 8.125 6.060 20.638 25.647 54.19 35.111 84.893 23.702 30.015-11.148 48.948-40.476 46.029-71.316-2.902-30.579-26.514-55.775-59.213-61.54-28.927-5.088-52.848 4.341-70.802 26.481-4.153 5.123-8.052 7.172-14.799 7.067-23.74-0.434-11.244-0.174-34.857-0.174 0-29.849-30.142-86.405-110.193-86.405-76.17 0-109.359 60.202-109.359 86.405-25.789 0-15.506 0.174-41.476-0.278-2.775-0.052-6.039-3.49-8.107-6.060-20.657-25.665-54.153-35.111-84.912-23.702-29.997 11.113-48.912 40.459-46.010 71.316 2.884 30.596 26.514 55.792 59.213 61.54 28.927 5.088 52.848-4.341 70.802-26.481 4.171-5.123 8.052-7.172 14.799-7.067 23.722 0.434 11.19 0.174 35.872 0.174v121.204zM693.946 601.058l-227.404 80.831v80.814l227.404-80.814v-80.831zM693.946 739.853l-227.404 80.831h227.404v-80.831zM693.946 462.264l-227.404 80.831v80.814l227.404-80.814v-80.831z" />
<glyph unicode="&#xe908;" glyph-name="icon-minify-combine" d="M715.731 383.715h-247.323l-358.048-358.048c-25.403-25.403-66.093-25.389-91.198-0.285-25.28 25.28-24.977 65.935 0.285 91.198l331.421 331.421-331.421 331.421c-25.262 25.262-25.565 65.918-0.285 91.198 25.105 25.105 65.795 25.118 91.198-0.285l358.048-358.048h247.323v163.14c0 17.961 11.44 23.27 25.222 12.124l270.982-219.152c13.93-11.265 13.782-29.649 0-40.795l-270.982-219.152c-13.93-11.265-25.222-5.399-25.222 12.124v163.14z" />
<glyph unicode="&#xe909;" glyph-name="icon-minify-defer" d="M192.478 639.717h-174.694c-17.773 0-23.148 11.273-11.905 25.178l230.119 284.628c11.345 14.033 29.47 13.905 40.713 0l230.119-284.628c11.345-14.033 5.912-25.178-11.905-25.178h-174.639v-638.62c0-35.589-28.611-64.343-63.904-64.343-35.539 0-63.904 28.807-63.904 64.343v638.62zM831.52 256.283h174.639c17.818 0 23.25-11.146 11.905-25.178l-230.119-284.628c-11.243-13.905-29.367-14.033-40.713 0l-230.119 284.628c-11.242 13.906-5.868 25.178 11.905 25.178h174.694v638.62c0 35.536 28.365 64.343 63.904 64.343 35.293 0 63.904-28.754 63.904-64.343v-638.62z" />
<glyph unicode="&#xe90a;" glyph-name="icon-minify-footer" d="M0 384c0 18 6.167 33.167 18.5 45.5s27.5 18.5 45.5 18.5h896c17.333 0 32.333-6.333 45-19s19-27.667 19-45v-384c0-18-6.167-33.167-18.5-45.5s-27.5-18.5-45.5-18.5h-896c-17.333 0-32.333 6.333-45 19s-19 27.667-19 45v384zM0 672c0 8.667 3.167 16.167 9.5 22.5s13.833 9.5 22.5 9.5h960c8.667 0 16.167-3.167 22.5-9.5s9.5-13.833 9.5-22.5c0-8.667-3.167-16.167-9.5-22.5s-13.833-9.5-22.5-9.5h-960c-8.667 0-16.167 3.167-22.5 9.5s-9.5 13.833-9.5 22.5zM0 800c0 8.667 3.167 16.167 9.5 22.5s13.833 9.5 22.5 9.5h960c8.667 0 16.167-3.167 22.5-9.5s9.5-13.833 9.5-22.5c0-8.667-3.167-16.167-9.5-22.5s-13.833-9.5-22.5-9.5h-960c-8.667 0-16.167 3.167-22.5 9.5s-9.5 13.833-9.5 22.5zM0 928c0 8.667 3.167 16.167 9.5 22.5s13.833 9.5 22.5 9.5h960c8.667 0 16.167-3.167 22.5-9.5s9.5-13.833 9.5-22.5c0-8.667-3.167-16.167-9.5-22.5s-13.833-9.5-22.5-9.5h-960c-8.667 0-16.167 3.167-22.5 9.5s-9.5 13.833-9.5 22.5zM0 544c0 8.667 3.167 16.167 9.5 22.5s13.833 9.5 22.5 9.5h960c8.667 0 16.167-3.167 22.5-9.5s9.5-13.833 9.5-22.5c0-8.667-3.167-16.167-9.5-22.5s-13.833-9.5-22.5-9.5h-960c-8.667 0-16.167 3.167-22.5 9.5s-9.5 13.833-9.5 22.5z" />
<glyph unicode="&#xe90b;" glyph-name="icon-minify" d="M244.547 72.901c-2.278-3.513-4.025-7.556-6.921-10.47-34.48-34.728-68.943-69.491-103.812-103.83-23.181-22.846-57.132-28.743-86.369-15.996-28.495 12.429-48.022 42.249-47.263 73.092 0.53 21.787 8.686 40.466 24.205 55.949 33.845 33.774 67.566 67.655 101.429 101.394 2.931 2.931 6.515 5.191 10.734 8.492-4.59 4.961-7.45 8.263-10.558 11.37-29.749 29.784-59.551 59.551-89.353 89.318-1.871 1.889-4.696 3.478-5.402 5.738-2.278 7.203-6.762 15.801-4.573 21.681 1.73 4.696 11.988 8.598 18.52 8.722 43.237 0.742 86.493 0.371 129.73 0.371 59.551-0.018 119.102-0.035 178.67-0.053 3.407-0.018 6.85 0.071 10.222-0.335 14.265-1.66 18.414-6.003 18.52-20.568 0.23-29.979 0.141-59.957 0.141-89.936 0-74.77 0.018-149.522-0.035-224.291-0.018-8.58 1.589-18.079-9.304-22.122-10.275-3.831-17.514 1.677-24.135 8.316-30.596 30.579-61.14 61.193-91.507 92.001-3.16 3.196-4.961 7.733-7.398 11.635-1.854-0.159-3.69-0.318-5.544-0.477zM886.027 186.007c5.756-6.215 8.21-9.022 10.823-11.652 34.586-34.675 69.438-69.085 103.706-104.077 21.31-21.787 28.46-48.040 19.756-77.542-8.545-28.955-28.107-47.598-57.379-54.325-28.178-6.462-53.371 0.689-74.152 21.416-34.675 34.604-69.279 69.244-103.936 103.848-2.383 2.383-4.89 4.643-7.945 7.521-3.319-3.107-6.391-5.844-9.287-8.757-29.802-29.802-59.568-59.639-89.37-89.441-2.666-2.684-5.12-6.462-8.386-7.503-6.426-2.030-14.442-5.049-19.738-2.807-4.308 1.801-7.839 10.717-7.874 16.508-0.512 73.287-0.335 146.591-0.318 219.878 0 32.662-0.088 65.324 0.141 97.986 0.106 16.578 5.191 21.804 21.998 21.839 105.896 0.106 211.791 0.106 317.704-0.071 15.96-0.035 22.74-13.118 14.212-26.748-2.383-3.796-5.756-7.044-8.969-10.24-29.802-29.802-59.586-59.622-89.6-89.212-2.895-2.86-7.221-4.255-11.388-6.621zM245.691 823.257c31.55 31.497 60.804 60.716 90.077 89.918 5.65 5.632 10.593 12.535 17.284 16.366 5.932 3.407 14.195 5.455 20.78 4.326 8.563-1.483 8.439-10.346 8.439-17.743-0.053-105.19-0.053-210.397-0.177-315.586-0.018-18.573-4.89-23.128-24.029-23.128-104.377-0.053-208.772-0.159-313.149 0.3-6.25 0.035-14.76 3.249-18.149 7.945-5.297 7.309-1.801 16.207 4.502 22.669 15.413 15.731 31.055 31.232 46.645 46.786 19.050 18.997 38.135 37.941 57.891 57.609-3.531 3.725-6.268 6.744-9.163 9.64-34.551 34.692-69.455 69.067-103.618 104.166-21.257 21.822-28.213 48.234-19.121 77.648 9.039 29.29 29.308 47.687 59.127 53.937 27.913 5.862 52.542-1.977 72.863-22.334 34.074-34.11 68.166-68.202 102.17-102.418 2.648-2.666 4.608-6.056 7.627-10.099zM775.107 822.418c39.936 40.042 76.676 77.365 113.964 114.123 38.082 37.535 100.087 28.548 125.175-17.673 16.967-31.285 11.582-67.902-14.46-94.226-33.916-34.269-68.166-68.202-102.259-102.294-2.878-2.895-5.597-5.967-9.551-10.187 21.204-20.833 41.807-40.978 62.287-61.228 13.489-13.347 27.224-26.483 40.042-40.466 4.29-4.679 7.698-11.476 8.545-17.708 1.359-9.905-5.491-15.219-17.867-15.289-31.514-0.159-63.011-0.071-94.508-0.053-72.492 0.035-144.984 0.088-217.476 0.141-23.587 0-27.648 4.078-27.63 27.913 0.053 102.912 0.159 205.807 0.23 308.719 0.018 7.98-0.918 16.455 8.616 20.286 9.551 3.814 17.108-0.477 23.552-6.886 30.402-30.279 60.681-60.663 90.836-91.171 3.708-3.761 6.409-8.492 10.505-14.001z" />
<glyph unicode="&#xe90c;" glyph-name="icon-performancetest" d="M414.582 28.434c0 0 47.76-56.244 94.35-92.434-281.355 1.654-508.932 230.226-508.932 511.98 0 121.119 42.080 232.392 112.38 320.061 45.419-18.706 88.372-38.523 105.367-53.542 0 0 39.525-78.040 66.888-136.822 27.364-58.784 46.621-91.215 54.728-161.147s65.874-184.457 168.235-221.958c-66.89-96.282-93.017-166.138-93.017-166.138zM486.997 592.482c0 0-31.085 196.004-244.927 145.327-41.987 18.926-81.243 34.231-116.173 46.426 93.863 107.695 232.029 175.765 386.104 175.765 190.936 0 357.439-104.533 445.464-259.481-62.831-10.027-227.191-34.434-402.291-45.478-33.885-2.138-56.036-36.23-68.177-62.559zM625.494 376.95l392.255 151.125c4.101-26.098 6.25-52.844 6.25-80.095 0-261.811-196.503-477.695-450.059-508.278-0.155 19.095 0.341 36.429 1.25 51.945 2.538 43.363 11.636 86.080 26.945 126.729 15.191 40.335 38.054 118.875 31.131 213.019-1.132 15.42-3.853 30.652-7.773 45.554z" />
<glyph unicode="&#xe90d;" glyph-name="icon-reports" d="M42.667 178.59v414.476h170.667v-414.476h-170.667zM554.667 178.59v704.61h170.709v-704.61h-170.709zM810.667 178.59v580.267h170.667v-580.267h-170.667zM298.667 178.59v580.267h170.667v-580.267h-170.667zM981.333 95.695c23.552 0 42.667-18.569 42.667-41.448s-19.115-41.448-42.667-41.448h-938.667c-23.552 0-42.667 18.569-42.667 41.448s19.115 41.448 42.667 41.448h938.667z" />
<glyph unicode="&#xe90e;" glyph-name="icon-restore" d="M902.64 323.64c-54.449-169.391-209.853-291.64-393.065-291.64-132.494 0-254.648 64.449-332.218 171.518l94.867 72.464c55.492-76.596 142.639-122.575 237.351-122.575 130.156 0 240.664 86.376 280.121 206.348l-66.184-49.013c-23.042-17.064-54.657-11.593-70.614 12.219s-10.213 56.949 12.829 74.013l220.862 163.561 129.987-228.053c14.243-24.988 6.22-57.64-17.919-72.932s-55.254-7.431-69.497 17.557l-26.522 46.531zM121.36 572.36c54.449 169.391 209.853 291.64 393.065 291.64 132.494 0 254.648-64.449 332.218-171.518l-94.867-72.464c-55.492 76.596-142.639 122.575-237.351 122.575-130.156 0-240.664-86.376-280.121-206.348l66.184 49.013c23.042 17.064 54.657 11.593 70.614-12.219s10.213-56.949-12.829-74.013l-220.862-163.561-129.987 228.053c-14.243 24.988-6.22 57.64 17.919 72.932s55.254 7.431 69.497-17.557l26.522-46.531z" />
<glyph unicode="&#xe90f;" glyph-name="icon-smush" d="M0 908.8l51.757-92.949 460.375-828.651 511.868 921.6h-1024zM512.002 104.813l-414.733 747.178h829.463l-414.73-747.178zM213.99 782.555l298.011-536.892 298.008 536.892h-596.019zM311.259 722.586h401.485l-200.742-361.655-200.742 361.655z" />
<glyph unicode="&#xe910;" glyph-name="icon-minify-inline" d="M42.667 960h938.667c23.564 0 42.667-19.103 42.667-42.667v0c0-23.564-19.103-42.667-42.667-42.667h-938.667c-23.564 0-42.667 19.103-42.667 42.667v0 0c0 23.564 19.103 42.667 42.667 42.667v0zM42.667 362.667h938.667c23.564 0 42.667-19.103 42.667-42.667s-19.103-42.667-42.667-42.667h-938.667c-23.564 0-42.667 19.103-42.667 42.667s19.103 42.667 42.667 42.667v0zM42.667 192h938.667c23.564 0 42.667-19.103 42.667-42.667s-19.103-42.667-42.667-42.667h-938.667c-23.564 0-42.667 19.103-42.667 42.667s19.103 42.667 42.667 42.667v0zM42.667 21.333h938.667c23.564 0 42.667-19.103 42.667-42.667s-19.103-42.667-42.667-42.667h-938.667c-23.564 0-42.667 19.103-42.667 42.667s19.103 42.667 42.667 42.667v0zM85.333 789.333h853.333c47.128 0 85.333-38.205 85.333-85.333v-170.667c0-47.128-38.205-85.333-85.333-85.333h-853.333c-47.128 0-85.333 38.205-85.333 85.333v170.667c0 47.128 38.205 85.333 85.333 85.333v0z" />
<glyph unicode="&#xe911;" glyph-name="wpmudev-icon-eye" d="M512 223.915c123.759 0 224.085 100.326 224.085 224.085s-100.326 224.085-224.085 224.085c-123.759 0-224.085-100.326-224.085-224.085s100.326-224.085 224.085-224.085zM0 448s136.533 352.085 512 352.085 512-352.085 512-352.085-136.533-352.085-512-352.085-512 352.085-512 352.085zM512 352.085c52.972 0 95.915 42.942 95.915 95.915s-42.942 95.915-95.915 95.915c-52.972 0-95.915-42.942-95.915-95.915s42.942-95.915 95.915-95.915z" />
<glyph unicode="&#xe912;" glyph-name="wpmudev-icon-wrench-tool" d="M985.6 795.307l-162.133-162.133c-2.102-0.132-4.559-0.207-7.034-0.207-65.98 0-119.467 53.487-119.467 119.467 0 2.475 0.075 4.931 0.224 7.369l62.106 61.788 100.011 100.011c1.55 1.519 2.51 3.634 2.51 5.973s-0.961 4.454-2.509 5.972c-0.592 0.532-1.266 0.988-1.998 1.344l-0.052 0.023h-1.365c-33.663 15.322-73.006 24.252-114.435 24.252-155.806 0-282.112-126.306-282.112-282.112 0-30.298 4.776-59.48 13.616-86.835l-294.958-292.404c-98.646-1.646-177.982-81.999-177.982-180.883 0-99.912 80.995-180.907 180.907-180.907 98.884 0 179.237 79.336 180.881 177.827l294.402 294.725c25.684-8.52 55.252-13.435 85.968-13.435 155.618 0 281.771 126.153 281.771 281.771 0 41.642-9.033 81.175-25.248 116.745l0.72-0.228c-0.311 0.584-0.651 1.087-1.036 1.551-1.507 1.535-3.622 2.495-5.961 2.495s-4.454-0.961-5.972-2.509zM256 116.907c-0.194-41.137-33.587-74.41-74.751-74.41-41.284 0-74.752 33.468-74.752 74.752 0 41.164 33.273 74.557 74.391 74.751 0.12 0.001 0.24 0.001 0.361 0.001 41.284 0 74.752-33.468 74.752-74.752 0-0.12 0-0.241-0.001-0.361z" />
<glyph unicode="&#xe913;" glyph-name="wpmudev-icon-profile-male" horiz-adv-x="1019" d="M978.261 134.144c-43.008 70.997-144.043 85.333-194.56 102.4s-147.627 87.893-147.627 87.893v51.2c19.87 18.419 36.867 39.546 50.502 62.877l0.698 1.294c2.048 3.584 3.755 6.997 5.461 10.24v1.365c1.365 3.072 2.56 5.803 3.584 8.533v1.877c0.943 2.416 1.88 5.437 2.626 8.532 1.791 8.072 3.238 17.391 4.129 26.872 9.117 3.338 13.725-1.612 25.331 28.255 13.141 34.133 35.328 109.909 20.821 125.952-3.371 3.949-8.353 6.437-13.916 6.437-3.855 0-7.432-1.195-10.379-3.234 7.133 29.653 11.189 63.652 11.189 98.599 0 8.856-0.26 17.651-0.774 26.378-6.599 106.316-111.73 167.927-209.010 177.484-107.861 10.581-105.131-8.363-116.736-46.763-78.848 1.195-112.299-71.339-112.299-71.339-19.115-43.691-20.309-100.693-3.584-182.613-2.887 2-6.463 3.195-10.318 3.195-5.563 0-10.546-2.488-13.895-6.412-14.528-16.068 7.659-92.356 20.8-125.977s17.067-24.235 26.965-27.819c0-4.437 1.365-22.187 2.389-26.795 13.335-37.939 35.415-69.97 63.908-94.837l0.263-52.79s-97.28-70.997-147.797-87.893-151.381-31.744-194.389-102.4-41.643-198.656-41.643-198.656h1019.392s1.877 127.147-41.131 198.144z" />
<glyph unicode="&#xe914;" glyph-name="wpmudev-icon-page" horiz-adv-x="717" d="M716.8 891.733v0 47.787c0 11.311-9.169 20.48-20.48 20.48h-389.12l-307.2-307.2v-696.32c0-11.311 9.169-20.48 20.48-20.48h675.84c11.311 0 20.48 9.169 20.48 20.48v29.013zM117.931 53.931v557.909h209.749c11.311 0 20.48 9.169 20.48 20.48v209.749h250.88v-788.139z" />
<glyph unicode="&#xe915;" glyph-name="wpmudev-icon-academy" horiz-adv-x="1353" d="M676.352 42.325c-73.045 0-382.976 69.973-382.976 210.091v157.013l370.859-151.723c3.558-1.498 7.693-2.369 12.032-2.369s8.474 0.87 12.241 2.446l366.553 149.938 4.096-2.048v-153.6c0-140.117-309.76-210.091-382.805-210.091zM1266.517 21.333l-71.851 87.211-72.021-87.211v403.968c0 3.755 0 18.603 0 18.603l-201.728 102.4 345.941-76.8zM1184.427 529.067l-394.069 77.312c-0.322 0.050-0.694 0.079-1.072 0.079-4.053 0-7.339-3.286-7.339-7.339 0-2.399 1.151-4.529 2.931-5.868l212.328-140.814-320.853-131.243-676.352 276.821 676.352 276.651 676.352-276.651z" />
</font>
</defs>
</svg>
